Image and video hosting by TinyPic

Autor Tema: Kung Fu Panda: Legends of Awesomeness [Sve sezone]  (Pročitano 36 puta)

0 članova i 1 gost pregledaju ovu temu.

Kung Fu Panda: Legends of Awesomeness [Sve sezone]
« poslato: Avgust 25, 2017, 18:58:02 »






Video
ID : 1
Format : AVC
Format/Info : Advanced Video Codec
Format profile : High@L3
Format settings, CABAC : Yes
Format settings, ReFrames : 4 frames
Codec ID : V_MPEG4/ISO/AVC
Duration : 22 min 44 s
Bit rate : 1 024 kb/s
Width : 720 pixels
Height : 404 pixels
Display aspect ratio : 16:9
Frame rate mode : Constant
Frame rate : 25.000 FPS
Color space : YUV
Chroma subsampling : 4:2:0
Bit depth : 8 bits
Scan type : Progressive
Bits/(Pixel*Frame) : 0.141
Stream size : 163 MiB (87%)
Writing library : x264 core 133





Audio
ID : 2
Format : AC-3
Format/Info : Audio Coding 3
Format settings, Endianness : Big
Codec ID : A_AC3
Duration : 22 min 44 s
Bit rate mode : Constant
Bit rate : 128 kb/s
Channel(s) : 2 channels
Channel positions : Front: L R
Sampling rate : 48.0 kHz
Frame rate : 31.250 FPS (1536 spf)
Bit depth : 16 bits
Compression mode : Lossy
Delay relative to video : -5 ms
Stream size : 20.8 MiB (11%)
Language : English
Service kind : Complete Main
Default : Yes
Forced : No