Image and video hosting by TinyPic

Autor Tema: Discovery Channel - Nazi UFO Conspiracy (2012)  (Pročitano 1446 puta)

0 članova i 1 gost pregledaju ovu temu.

Discovery Channel - Nazi UFO Conspiracy (2012)
« poslato: Mart 21, 2012, 16:09:23 »
Discovery Channel Nazi UFO Conspiracy











Piksla download

ARTiCHOKE
SPRiNTER proudly presents...
Discovery.Channel.Nazi.Ufo.Conspiracy.DVDRip.XviD-SPRiNTER
Date : 12.3.2012
URL  : http://www.imdb.com/title/tt1537863/
Subs : N/A
Release notes
Enjoy!
News
We are currently looking for:
- Looking for talented xvid-encoders with time & addiction :)
- Suppliers who can provide pre-retail or retail dvds with decent upload!
- 50Mbit+ dump providers with 1TB+ free space.
[email protected]
Greetings
NTX FiCO HNR CiNEFiLE AEN HUMANiSM TASTE 0MNiDVD
Details
Format                                   : AVI
Format/Info                              : Audio Video Interleave
File size                                : 350 MiB
Duration                                 : 43mn 57s
Overall bit rate mode                    : Variable
Overall bit rate                         : 1 113 Kbps
Writing application                      : VirtualDubMod 1.5.10.2 (build 2540/release)
Writing library                          : VirtualDubMod build 2540/release
Video
ID                                       : 0
Format                                   : MPEG-4 Visual
Format profile                           : Advanced [email protected]
Format settings, BVOP                    : 2
Format settings, QPel                    : No
Format settings, GMC                     : No warppoints
Format settings, Matrix                  : Default (H.263)
Codec ID                                 : XVID
Codec ID/Hint                            : XviD
Duration                                 : 43mn 57s
Bit rate                                 : 970 Kbps
Width                                    : 624 pixels
Height                                   : 352 pixels
Display aspect ratio                     : 16:9
Frame rate                               : 25.000 fps
Color space                              : YUV
Chroma subsampling                       : 4:2:0
Bit depth                                : 8 bits
Scan type                                : Progressive
Compression mode                         : Lossy
Bits/(Pixel*Frame)                       : 0.177
Stream size                              : 305 MiB (87%)
Writing library                          : XviD 61
Audio
ID                                       : 1
Format                                   : MPEG Audio
Format version                           : Version 1
Format profile                           : Layer 3
Mode                                     : Joint stereo
Mode extension                           : MS Stereo
Codec ID                                 : 55
Codec ID/Hint                            : MP3
Duration                                 : 43mn 57s
Bit rate mode                            : Variable
Bit rate                                 : 128 Kbps
Channel(s)                               : 2 channels
Sampling rate                            : 48.0 KHz
Compression mode                         : Lossy
Stream size                              : 40.8 MiB (12%)
Alignment                                : Aligned on interleaves

Piksla download



Piksla download

Freakshare



Bitshare












« Poslednja izmena: Mart 21, 2012, 21:11:47 ALTER MANN »