Autor Tema: Nindža Kornjače 2012 (2012- ) HR  (Pročitano 2838 puta)

0 članova i 1 gost pregledaju ovu temu.

Nindža Kornjače 2012 (2012- ) HR
« poslato: Februar 08, 2013, 14:50:54 »


Info
Citat
Tinejdžeri mutanti nindža kornjače, Leo, Doni, Ralf, i Majki su ponovo u akciji! Da li mogu da podnesu sav trening, negativce i PICU koja im se nađe na putu?

Sve je Hrvatska sinkronizacija, sezona ima 26 epizoda .

<a href="http://www.youtube.com/watch?v=bRKq0z2pqq8" target="_blank">http://www.youtube.com/watch?v=bRKq0z2pqq8</a>
« Poslednja izmena: Februar 08, 2013, 15:06:08 Leka Srbin »

Nindža Kornjače 2012 - Epizoda 1
« Odgovor #1 poslato: Februar 08, 2013, 14:57:20 »


Info
Citat
Nindža Kornjaće 2012 Epizoda 1 CROATIAN PDTV XviD

Download




Password
« Poslednja izmena: Februar 08, 2013, 15:06:29 Leka Srbin »

Nindža Kornjače 2012 - Epizoda 2
« Odgovor #2 poslato: Februar 08, 2013, 15:01:28 »


Info
Citat
Nindža Kornjaće 2012 Epizoda 2 CROATIAN PDTV XviD-DEA

[SPOILER="NFO"]
General
Complete name                            : Nindza.Kornjace.2012.CROATIAN.S01E02.PDTV.XviD-DEA.avi
Format                                   : AVI
Format/Info                              : Audio Video Interleave
File size                                : 174 MiB
Duration                                 : 23mn 18s
Overall bit rate                         : 1 042 Kbps

Video
ID                                       : 0
Format                                   : MPEG-4 Visual
Format profile                           : Simple@L3
Format settings, BVOP                    : No
Format settings, QPel                    : No
Format settings, GMC                     : No warppoints
Format settings, Matrix                  : Default (H.263)
Codec ID                                 : XVID
Codec ID/Hint                            : XviD
Duration                                 : 23mn 18s
Bit rate                                 : 900 Kbps
Width                                    : 768 pixels
Height                                   : 432 pixels
Display aspect ratio                     : 16:9
Frame rate                               : 30.000 fps
Color space                              : YUV
Chroma subsampling                       : 4:2:0
Bit depth                                : 8 bits
Scan type                                : Progressive
Compression mode                         : Lossy
Bits/(Pixel*Frame)                       : 0.090
Stream size                              : 150 MiB (86%)
Writing library                          : XviD 1.2.1 (UTC 2008-12-04)

Audio
ID                                       : 1
Format                                   : MPEG Audio
Format version                           : Version 1
Format profile                           : Layer 3
Mode                                     : Joint stereo
Codec ID                                 : 55
Codec ID/Hint                            : MP3
Duration                                 : 23mn 17s
Bit rate mode                            : Constant
Bit rate                                 : 128 Kbps
Channel(s)                               : 2 channels
Sampling rate                            : 44.1 KHz
Compression mode                         : Lossy
Stream size                              : 21.3 MiB (12%)
Alignment                                : Aligned on interleaves
Interleave, duration                     : 26 ms (0.78 video frame)
Writing library                          : LAME3.98[/SPOILER]

Download




Password
« Poslednja izmena: Februar 08, 2013, 15:07:03 Leka Srbin »

Nindža Kornjače 2012 - Epizoda 3
« Odgovor #3 poslato: Februar 08, 2013, 15:02:55 »


Info
Citat
[COLOR="yellow"]Nindza Kornjace 2012 - Epizoda 3 PDTV XviD-DEA[/COLOR]

[SPOILER="NFO"]
General
Complete name                            : Nindza.Kornjace.2012.CROATIAN.S01E03.PDTV.XviD-DEA.avi
Format                                   : AVI
Format/Info                              : Audio Video Interleave
File size                                : 264 MiB
Duration                                 : 22mn 32s
Overall bit rate                         : 1 641 Kbps

Video
ID                                       : 0
Format                                   : MPEG-4 Visual
Format profile                           : Simple@L3
Format settings, BVOP                    : No
Format settings, QPel                    : No
Format settings, GMC                     : No warppoints
Format settings, Matrix                  : Default (H.263)
Codec ID                                 : XVID
Codec ID/Hint                            : XviD
Duration                                 : 22mn 32s
Bit rate                                 : 1 500 Kbps
Width                                    : 768 pixels
Height                                   : 428 pixels
Display aspect ratio                     : 16:9
Frame rate                               : 30.000 fps
Color space                              : YUV
Chroma subsampling                       : 4:2:0
Bit depth                                : 8 bits
Scan type                                : Progressive
Compression mode                         : Lossy
Bits/(Pixel*Frame)                       : 0.152
Stream size                              : 242 MiB (91%)
Writing library                          : XviD 1.2.1 (UTC 2008-12-04)

Audio
ID                                       : 1
Format                                   : MPEG Audio
Format version                           : Version 1
Format profile                           : Layer 3
Mode                                     : Joint stereo
Codec ID                                 : 55
Codec ID/Hint                            : MP3
Duration                                 : 22mn 31s
Bit rate mode                            : Constant
Bit rate                                 : 128 Kbps
Channel(s)                               : 2 channels
Sampling rate                            : 44.1 KHz
Compression mode                         : Lossy
Stream size                              : 20.6 MiB (8%)
Alignment                                : Aligned on interleaves
Interleave, duration                     : 26 ms (0.78 video frame)
Interleave, preload duration             : 365 ms
Writing library                          : LAME3.98[/SPOILER]

Download

BitShare


Rapidgator


Password
« Poslednja izmena: Februar 08, 2013, 15:07:28 Leka Srbin »

Odg: Nindža Kornjače 2012 (2012- ) HR
« Odgovor #4 poslato: Maj 13, 2014, 01:51:38 »
Ninja Kornjače - Sezona 1 (2003)





Format: Avi
Sezona: 1 (Kompletna)
Sinkroniziran: Da
IMDB:


Leonardo je vođa Kornjača, koji se trudi biti savršen heroj i uzor trojici mlađe braće. Rafael je najveći i najjači među braćom te ima malo strpljenja. Donatello je analitičan, briljantni izumitelj koji je sposoban tehnološke stvari s odlagališta otpada pretvoriti u fantastično oružje. Posljednji je Michelangelo, zabavnjak kojeg je lagano omesti u svakoj prilici.









« Poslednja izmena: Maj 13, 2014, 03:03:06 steven80 »

Odg: Nindža Kornjače 2012 (2012- ) HR
« Odgovor #5 poslato: Maj 13, 2014, 03:02:36 »
Ninja Kornjače - Sezona 2 (2003)





Format: Avi
Sezona: 2 (Kompletna)
Sinkroniziran: Da
IMDB:


Leonardo je vođa Kornjača, koji se trudi biti savršen heroj i uzor trojici mlađe braće. Rafael je najveći i najjači među braćom te ima malo strpljenja. Donatello je analitičan, briljantni izumitelj koji je sposoban tehnološke stvari s odlagališta otpada pretvoriti u fantastično oružje. Posljednji je Michelangelo, zabavnjak kojeg je lagano omesti u svakoj prilici.






Odg: Nindža Kornjače 2012 (2012- ) HR
« Odgovor #6 poslato: Maj 18, 2014, 20:37:08 »
imali mozda jos epizoda iz 2003.god
al ako moze na neki drugi server zajedno sa ove 2 sezone sto su vec postavljene jer je turbobit jako spor.
« Poslednja izmena: Maj 18, 2014, 21:09:59 denisjankovic98 »

Odg: Nindža Kornjače 2012 (2012- ) HR
« Odgovor #7 poslato: Maj 18, 2014, 20:51:53 »
Postavi 3,4,,6 i 7 sezonu,ili bilo koju od ovih iz 2003 :)

Odg: Nindža Kornjače 2012 (2012- ) HR
« Odgovor #8 poslato: Maj 18, 2014, 22:34:31 »
Postavi 3,4,,6 i 7 sezonu,ili bilo koju od ovih iz 2003 :)
ali na drugm serveru

Odg: Nindža Kornjače 2012 (2012- ) HR
« Odgovor #9 poslato: Maj 22, 2014, 00:38:00 »
imali mozda jos epizoda iz 2003.god
al ako moze na neki drugi server zajedno sa ove 2 sezone sto su vec postavljene jer je turbobit jako spor.

Postoju samo 4 sezone iz 2003 god.

Odg: Nindža Kornjače 2012 (2012- ) HR
« Odgovor #10 poslato: Maj 22, 2014, 17:03:10 »
Postavi onda i 3 i 4 sezonu. :D

Odg: Nindža Kornjače 2012 (2012- ) HR
« Odgovor #11 poslato: Maj 23, 2014, 23:15:27 »




Format: Avi (PDRip - RAKiJA)
Serija: 4 (Kompletna)
Sinkroniziran: Da
Imdb:


Splinter, vrhunski borac, pronašao je u kanalizaciji New Yorka četiri male kornjače, koje su zajedno s njim mutirale. One se bore protiv kriminala, najčešće protiv Shreddera i Kranga (zlog mozga iz Dimenzije X), i to u suradnji s njihovim prijateljima: April, Casey, Zachom, Neutrinima, Irmom, Bubamanom,...
Borilački tim super ninja čine Rafaelo, Donatello, Michelangelo i Leonardo može se oduprijeti čudovištima koja žele pokoriti svijet.
Ako vas je slučajno uhvatila panika, budite bez brige jer vaše su omiljene kornjače uvijek spremne za borbu u kojoj će i pobijediti!






Odg: Nindža Kornjače 2012 (2012- ) HR
« Odgovor #12 poslato: Maj 24, 2014, 08:43:01 »
A gde je treca sezona? :D

Odg: Nindža Kornjače 2012 (2012- ) HR
« Odgovor #13 poslato: Maj 24, 2014, 19:05:58 »
A gde je treca sezona? :D

Nazalost nemam trecu sezonu. Zato imam serijal cjeli iz godine 2012, post ispod.

Odg: Nindža Kornjače 2012 (2012- ) HR
« Odgovor #14 poslato: Maj 24, 2014, 19:07:04 »
Ninja Kornjace 2012 god.





Format: Avi (PDTV - RAKiJA)
Epizode: Komplet (2012 god.)
Sinkroniziran: Da
IMDB:


Serija prati četiri brata tinejdžera (Leonardo, Donatello, Raphael, Michelangelo) u njihovoj borbi protiv zla. Također prati njihovo učenje da se oslone sami na sebe, te jedni na druge, da savladaju timski rad, nauče kretati se tajnovito, te postanu heroji. Priča počinje kada kornjače izađu po prvi put na površinu, iz svoje skrivene jazbine u kanalizaciji, spremne suočiti se s neprijateljskim svijetom.